#TITLE:Can't Touch Me;
#SUBTITLE:;
#ARTIST:Family Guy;
#TITLETRANSLIT:;
#SUBTITLETRANSLIT:;
#ARTISTTRANSLIT:;
#CREDIT:;
#BANNER:;
#BACKGROUND:;
#LYRICSPATH:;
#CDTITLE:;
#MUSIC:familyguy-can't touch me.mp3;
#OFFSET:-0.960;
#SAMPLESTART:43.847;
#SAMPLELENGTH:12.000;
#SELECTABLE:YES;
#BPMS:0.000=151.000,112.000=152.000,145.000=150.000;
#STOPS:;
#BGCHANGES:;
// cache tags:
#FIRSTBEAT:25.000;
#LASTBEAT:167.000;
#SONGFILENAME:Songs/Music V.I.P ^_^/Familyguy-Can't Touch Me/familyguy-can't touch me.sm;
#HASMUSIC:1;
#HASBANNER:0;
#MUSICLENGTH:68.551;
// end cache tags

//---------------dance-single - ----------------
#NOTES:
     dance-single:
     :
     Hard:
     9:
     0.613,0.792,0.890,0.029,0.066,231.000,61.000,2.000,0.000,0.000:
0000
0000
0000
0000
,
0000
0000
0000
0000
,
0000
0000
0000
0000
,
0000
0000
0000
0000
,
0000
0000
0000
0000
,
0000
0000
0000
0000
,
0000
0000
1000
0000
0001
0100
0010
1000
,
0000
0100
0001
0100
0010
0100
1000
0000
,
0001
0010
1100
0000
0011
0000
1000
0100
,
0011
0000
1000
0001
0100
0010
1001
0000
,
0110
0000
1000
0010
0100
0001
0010
0100
,
1000
1000
0110
0110
1001
1001
0110
0000
,
1100
0000
0001
0100
0101
0010
1000
0010
,
1010
0100
0001
0010
0100
0001
0100
1100
,
0110
0011
1000
0000
0101
0000
0010
0000
,
1100
0000
0001
0000
0101
0000
0010
0011
,
0110
1100
0010
0000
1001
0000
1000
0000
,
1100
0000
0001
0000
0011
0000
0100
1001
,
1100
0110
0001
0000
0110
0000
1000
0000
,
1010
0000
0000
0000
0001
0000
0000
0000
0202
0000
0000
0000
0303
0000
1000
0001
,
1000
0000
0100
0010
0001
0000
1001
0000
0000
0000
0000
0000
1000
0000
0001
0000
,
1001
0000
1000
0100
0010
0100
0010
0001
,
0010
1100
0110
1001
0000
0000
1000
0100
,
0011
0000
1000
0100
0010
0000
0001
0010
,
0100
1000
1100
0001
,
0101
1000
1010
0001
,
0011
1000
0110
0001
,
0110
0000
0100
0000
1001
0000
0010
0011
,
0110
1100
0010
0000
1001
0000
1000
0001
,
0100
0010
1000
0001
0100
0010
1000
1100
,
0110
0011
1000
0100
0010
0001
0100
0010
,
0001
0010
1000
0100
0001
0100
1000
0010
,
0100
0001
0100
0000
0101
0000
0000
0000
1000
0000
0100
0000
0001
0000
0100
0000
,
1000
0000
0110
0000
0001
0010
1000
0010
,
0001
0000
1001
0000
0100
0010
1000
0001
,
0100
0000
1000
0001
0010
0001
0100
1000
,
0100
0001
0101
0000
1000
0100
0010
0001
,
0000
0001
0010
0000
0100
1000
0010
1000
,
0000
0000
1000
0000
0001
0010
0100
0000
1000
0001
0100
0010
0100
0010
0100
0000
,
1000
0100
0010
0100
1000
0000
1100
0000
0001
0000
0101
0000
1000
0000
1100
0000
,
0110
0011
0001
0010
0100
1000
0100
0010
,
0001
0010
0100
0001
0100
1000
0110
0000
;
